StarCraft 2 Wings of Liberty Cinematic (GameRip, mp4) - StarCraft FOREVER
StarCraft Forever! - 7x.ru StarCraft Information Site
История
StarCraft: История терранов StarCraft: История протоссов StarCraft: История зергов

Вернуться   StarCraft FOREVER > Torrent трекер > StarCraft > Музыка и видео

Важная информация

Ответ
 
Опции темы Опции просмотра
Старый 07.10.2010, 13:53   #1
[7x]~Zer@tuL~
One Winged Angel
 
Аватар для [7x]~Zer@tuL~
 
7x Master
Регистрация: 05.09.2003
Адрес: Санкт-Петербург
Сообщений: 3,977
Нарушения: 0
ICQ: 215726313
Отправить сообщение для [7x]~Zer@tuL~ с помощью ICQ
StarCraft 2 Wings of Liberty Cinematic (GameRip, mp4)

Год выпуска: 2010 г.
Разработчик: Blizzard
Продолжительность: ~ 40 минут
Субтитры: нет
Язык озвучки: русский
Качество: HD
Формат: MP4

Все ролики и заставки из игры. Включая выпуски новостей и прикольную рекламу которую крутят по телевизору в кают-компании.

mediainfo:
Скрытый текст:
cinematic_bettermarine.mp4
Format : MPEG-4
Format profile : Base Media
Codec ID : isom
File size : 202 MiB
Duration : 3mn 44s
Overall bit rate : 7 556 Kbps
Encoded date : UTC 2010-07-26 12:53:54
Tagged date : UTC 2010-07-26 12:53:54
Video #1
ID : 1
Format : MPEG-4 Visual
Format profile : Simple@L1
Format settings, BVOP : No
Format settings, QPel : No
Format settings, GMC : No warppoints
Format settings, Matrix : Default (H.263)
Codec ID : 20
Duration : 3mn 42s
Bit rate mode : Variable
Bit rate : 7 306 Kbps
Maximum bit rate : 20.5 Mbps
Width : 1 280 pixels
Height : 720 pixels
Display aspect ratio : 16:9
Frame rate mode : Constant
Frame rate : 24.000 fps
Resolution : 8 bits
Colorimetry : 4:2:0
Scan type : Progressive
Bits/(Pixel*Frame) : 0.330
Stream size : 194 MiB (96%)
Writing library : Lavc52.47.0
Encoded date : UTC 2010-07-26 12:53:54
Tagged date : UTC 2010-07-26 12:54:04
Audio #2
ID : 2
Format : AAC
Format/Info : Advanced Audio Codec
Format version : Version 4
Format profile : LC
Format settings, SBR : No
Codec ID : 40
Duration : 3mn 42s
Bit rate mode : Variable
Bit rate : 162 Kbps
Maximum bit rate : 222 Kbps
Channel(s) : 2 channels
Channel positions : L R
Sampling rate : 44.1 KHz
Stream size : 4.29 MiB (2%)
Encoded date : UTC 2010-07-26 12:54:03
Tagged date : UTC 2010-07-26 12:54:04
Audio #3
ID : 3
Format : AAC
Format/Info : Advanced Audio Codec
Format version : Version 4
Format profile : Main
Codec ID : 40
Duration : 3mn 44s
Bit rate mode : Variable
Bit rate : 156 Kbps
Maximum bit rate : 210 Kbps
Channel(s) : 2 channels
Channel positions : L R
Sampling rate : 44.1 KHz
Stream size : 4.18 MiB (2%)
Encoded date : UTC 2010-07-26 12:54:04
Tagged date : UTC 2010-07-26 12:54:04
Вложения
Тип файла: torrent [StarCraft.7x.ru]StarCraft2.WoL_Cinematic_GameRip.torrent (17.4 Кб, 343 просмотров) Больше информации...
Размер: 1.37 Гб, Сидов: 0, Личеров: 0, Закончили: 9, Скорость отдачи: 0, Скорость скачки: 0
__________________
One day we will discover a new world...
We will create our shining future on that ground...
What will happen to this planet?
Hmm...
Who knows...
That depends on you, I guess...

Последний раз редактировалось TerryBogard; 16.04.2011 в 12:35.
[7x]~Zer@tuL~ вне форума   Ответить с цитированием
Старый 06.11.2010, 21:57   #2
paraleach
Новичок
 
Аватар для paraleach
 
Регистрация: 06.11.2010
Сообщений: 1
Нарушения: 0
ICQ:
Круто! Солью, так как буквально живу во Вселенной СтарКрафт!
paraleach вне форума   Ответить с цитированием
Старый 06.11.2010, 21:59   #3
simple)zerg(
Местный
 
Аватар для simple)zerg(
 
Регистрация: 28.05.2009
Сообщений: 455
Нарушения: 1
ICQ: Выпилили
Отправить сообщение для simple)zerg( с помощью ICQ
[7x]Zeratul
Ratio:11118.66
читер
скачаю, спасибо.
жду HotS
__________________
Мы - маленькие скрытни. Мы никого не трогаем...
simple)zerg( вне форума   Ответить с цитированием
Старый 06.11.2010, 23:38   #4
[7x]cmd.exe
Command Executive.
 
Аватар для [7x]cmd.exe
 
7x Tech Team
Регистрация: 21.02.2010
Адрес: Россия, Нижегородская Область, Нижний Новгород, Нижегородский район.
Сообщений: 1,090
Нарушения: 0
ICQ: 405542395
Отправить сообщение для [7x]cmd.exe с помощью ICQ Отправить сообщение для [7x]cmd.exe с помощью Skype™
Вот это ты нараздавал....
__________________
"Оставь надежду всяк сюда входящий!" (с) Данте. "Ад"
Русских всегда недооценивали, а между тем они умеют хранить секреты не только от врагов, но и от друзей. (c)
(Уинстон Черчиль.)
С каждым днем всё радостнее жить!(с)
[7x]cmd.exe вне форума   Ответить с цитированием
Ответ

Опции темы
Опции просмотра

Ваши права в разделе
Вы не можете создавать новые темы
Вы не можете отвечать в темах
Вы не можете прикреплять вложения
Вы не можете редактировать свои сообщения

BB коды Вкл.
Смайлы Вкл.
[IMG] код Вкл.
HTML код Выкл.

Быстрый переход

Похожие темы
Тема Автор Раздел Ответов Последнее сообщение
StarCraft 2: Wings of Liberty - 7x Collection [7x]~Zer@tuL~ Краки и моды 0 24.07.2011 03:10
Starcraft 2 - Wings of Liberty в вопросах - ответах [7x]~Zer@tuL~ Технический форум 11 07.04.2011 19:06
Версии StarCraft II: Wings of Liberty с 1.3.0.18092 по 1.3.4.x [7x]cmd.exe Обсуждение 3 01.04.2011 00:26
StarCraft 2 Wings of Liberty Patch v.1.2.1 (Mac OS) [7x]~Zer@tuL~ StarCraft 0 15.02.2011 14:34
StarCraft 2 Wings of Liberty Soundtrack (GameRip, OGG, 128-192 kbps) [7x]~Zer@tuL~ Музыка и видео 0 07.10.2010 13:17


Текущее время: 19:07. Часовой пояс GMT +4.


Powered by vBulletin® Version 7.7.7
Copyright ©2002 - 2020, 7x.ru information site edition. Перевод: zCarot
Копирование информации сайта без разрешения администрации преследуется по понятиям.

Яндекс.Метрика Rambler's Top100 Яндекс цитирования